Videoforum - форум о видео и не только!


Вернуться   Videoforum - форум о видео и не только! > Видеосъёмка и монтаж. > Общие вопросы по видеомонтажу > Adobe Premiere / Adobe Premiere PRO

Важная информация

Adobe Premiere / Adobe Premiere PRO Здесь решаем вопросы возникающие при работе в программах Adobe Premiere (все версии)

Ответ
 
Опции темы
Старый 23.04.2017, 20:35   #1
laronov
Новичок
 
Регистрация: 26.01.2010
Сообщений: 6
Сказал(а) спасибо: 0
Поблагодарили 0 раз(а) в 0 сообщениях
Вес репутации: 0
laronov has a spectacular aura about
По умолчанию Не воспроизводится previw для некоторых MTS

Доброе время суток!
Собираю проект из фрагментов снятых с на две камеры.
Обе выдают MTS в 1080p в MTS.
Импортировал все клипы, промаркировал, что бы потом перетаскивать на таймлайн - все работало.
А в какой-то момент видео с оной из камер перестало отображаться при предварительном просмотре (как в панели "Источник", та и если вывести на таймлайн), но звук при этом идет.
В новом проекте точно также - с одной камеры показывает картинку, а с другой нет...

Подскажите ,пожалуйста, что может быть и куда копать?

PS Adobe Premiere Pro CC 2015, Windows 10

Спасибо!
laronov вне форума   Ответить с цитированием Вверх
Реклама на форуме
Старый 24.04.2017, 08:27   #2
Nick MM
Banned
 
Регистрация: 01.02.2010
Возраст: 63
Сообщений: 639
Сказал(а) спасибо: 85
Поблагодарили 338 раз(а) в 285 сообщениях
Вес репутации: 0
Nick MM has much to be proud ofNick MM has much to be proud ofNick MM has much to be proud ofNick MM has much to be proud of
Отправить сообщение для Nick MM с помощью Skype™
По умолчанию

а вы сами попробуйте поразмыслить..как нам найти решение не имея НИКАКОЙ информации..ну кроме трех букв mts? Гадать на коф.гуще, экстрасенса вызывать или все таки догадаетесь выложить MediaInfo файлов или сами файлы....Тем более что исходя из этого :все работало...А в какой-то момент...есть подозрения что в промежутке между "работало и в момент"... кто то. что то накрутил...Очень часто не задумываясь устанавливают, удаляют, обновляют...а потом с удивлением замечают что перестало...
Nick MM вне форума   Ответить с цитированием Вверх
Старый 24.04.2017, 10:02   #3
vovke
Просветлённый
 
Аватар для vovke
 
Регистрация: 09.04.2010
Адрес: Абакан
Сообщений: 465
Сказал(а) спасибо: 88
Поблагодарили 305 раз(а) в 167 сообщениях
Вес репутации: 446
vovke has much to be proud ofvovke has much to be proud ofvovke has much to be proud ofvovke has much to be proud of
По умолчанию

Сразу бы предложил челу на Эдик уйти.
Чего мучить бедолагу?)))))
vovke вне форума   Ответить с цитированием Вверх
Старый 24.04.2017, 17:40   #4
Nick MM
Banned
 
Регистрация: 01.02.2010
Возраст: 63
Сообщений: 639
Сказал(а) спасибо: 85
Поблагодарили 338 раз(а) в 285 сообщениях
Вес репутации: 0
Nick MM has much to be proud ofNick MM has much to be proud ofNick MM has much to be proud ofNick MM has much to be proud of
Отправить сообщение для Nick MM с помощью Skype™
По умолчанию

только на флуд и хватает ума...
Nick MM вне форума   Ответить с цитированием Вверх
Старый 24.04.2017, 20:28   #5
laronov
Новичок
 
Регистрация: 26.01.2010
Сообщений: 6
Сказал(а) спасибо: 0
Поблагодарили 0 раз(а) в 0 сообщениях
Вес репутации: 0
laronov has a spectacular aura about
По умолчанию

Nick MM, спасибо за наводящие вопросы... Именно это я и называл "куда копать"
Итак...
MediaInfo файла у которого картинка не воспроизводится (со звуком все ОК)
Код:
Формат                                   : BDAV
Формат/Информация                        : Blu-ray Video
Размер файла                             : 92,9 Мбайт
Продолжительность                        : 33 с.
Режим общего битрейта                    : Переменный
Общий поток                              : 23,6 Мбит/сек
Максимальный общий битрейт               : 24,0 Мбит/сек

Видео
Идентификатор                            : 4113 (0x1011)
Идентификатор меню                       : 1 (0x1)
Формат                                   : AVC
Формат/Информация                        : Advanced Video Codec
Профиль формата                          : [email protected]
Параметр CABAC формата                   : Да
Параметр ReFrames формата                : 2 кадра
Параметр GOP формата                     : M=3, N=12
Идентификатор кодека                     : 27
Продолжительность                        : 33 с.
Вид битрейта                             : Переменный
Битрейт                                  : 22,4 Мбит/сек
Максимальный битрейт                     : 22,7 Мбит/сек
Ширина                                   : 1920 пикселей
Высота                                   : 1080 пикселей
Соотношение сторон                       : 16:9
Частота кадров                           : 25,000 кадров/сек
Цветовое пространство                    : YUV
Субдискретизация насыщенности            : 4:2:0
Битовая глубина                          : 8 бит
Тип развёртки                            : Чересстрочная
Метод сохранения типа развёртки          : Раздельные поля
Порядок развёртки                        : Верхнее поле первое
Бит/(Пиксели*Кадры)                      : 0.431
Размер потока                            : 88,1 Мбайт (95%)

Аудио
Идентификатор                            : 4352 (0x1100)
Идентификатор меню                       : 1 (0x1)
Формат                                   : AC-3
Формат/Информация                        : Audio Coding 3
Расширение режима                        : CM (complete main)
Параметр Endianness формата              : Big
Идентификатор кодека                     : 129
Продолжительность                        : 33 с.
Вид битрейта                             : Постоянный
Битрейт                                  : 256 Кбит/сек
Каналы                                   : 2 канала
Расположение каналов                     : Front: L R
Частота                                  : 48,0 КГц
Частота кадров                           : 31,250 кадров/сек (1536 spf)
Метод сжатия                             : С потерями
Задержка видео                           : -80 мс.
Размер потока                            : 1,01 Мбайт (1%)
А это того, который нормально воспроизводится
Код:
Формат                                   : BDAV
Формат/Информация                        : Blu-ray Video
Размер файла                             : 138 Мбайт
Продолжительность                        : 43 с.
Режим общего битрейта                    : Переменный
Общий поток                              : 26,5 Мбит/сек
Максимальный общий битрейт               : 28,0 Мбит/сек

Видео
Идентификатор                            : 4113 (0x1011)
Идентификатор меню                       : 1 (0x1)
Формат                                   : AVC
Формат/Информация                        : Advanced Video Codec
Профиль формата                          : [email protected]
Параметр CABAC формата                   : Да
Параметр ReFrames формата                : 2 кадра
Параметр GOP формата                     : M=1, N=12
Идентификатор кодека                     : 27
Продолжительность                        : 43 с.
Вид битрейта                             : Переменный
Битрейт                                  : 25,2 Мбит/сек
Максимальный битрейт                     : 26,0 Мбит/сек
Ширина                                   : 1920 пикселей
Высота                                   : 1080 пикселей
Соотношение сторон                       : 16:9
Частота кадров                           : 50,000 кадров/сек
Цветовое пространство                    : YUV
Субдискретизация насыщенности            : 4:2:0
Битовая глубина                          : 8 бит
Тип развёртки                            : Прогрессивная
Бит/(Пиксели*Кадры)                      : 0.243
Размер потока                            : 131 Мбайт (95%)

Аудио
Идентификатор                            : 4352 (0x1100)
Идентификатор меню                       : 1 (0x1)
Формат                                   : AC-3
Формат/Информация                        : Audio Coding 3
Расширение режима                        : CM (complete main)
Параметр Endianness формата              : Big
Идентификатор кодека                     : 129
Продолжительность                        : 43 с.
Вид битрейта                             : Постоянный
Битрейт                                  : 256 Кбит/сек
Каналы                                   : 2 канала
Расположение каналов                     : Front: L R
Частота                                  : 48,0 КГц
Частота кадров                           : 31,250 кадров/сек (1536 spf)
Метод сжатия                             : С потерями
Размер потока                            : 1,33 Мбайт (1%)

Текст
Идентификатор                            : 4608 (0x1200)
Идентификатор меню                       : 1 (0x1)
Формат                                   : PGS
Идентификатор кодека                     : 144
Продолжительность                        : 43 с.
Цитата:
в какой-то момент...есть подозрения что в промежутке между "работало и в момент"... кто то. что то накрутил...Очень часто не задумываясь устанавливают, удаляют, обновляют...а потом с удивлением замечают что перестало...
Опять же, верное замечание. Но я ничего не устанавливал и даже не удалял. Единственное на кого я могу грешить - это на Windows 10, который постоянно что-то обновляет и не понятно как это отключить...
Но при том, что MediaInfo очень похожие как-то мало верится...

Если нужно будет, то выложу и сами файлы
laronov вне форума   Ответить с цитированием Вверх
Старый 24.04.2017, 22:27   #6
Nick MM
Banned
 
Регистрация: 01.02.2010
Возраст: 63
Сообщений: 639
Сказал(а) спасибо: 85
Поблагодарили 338 раз(а) в 285 сообщениях
Вес репутации: 0
Nick MM has much to be proud ofNick MM has much to be proud ofNick MM has much to be proud ofNick MM has much to be proud of
Отправить сообщение для Nick MM с помощью Skype™
По умолчанию

ну разница есть...и частота кадров и профиль формата и тип развертки... но видеть их должна монтажка...однозначно...Все таки киньте по одному не большому и параметры проекта какие? Обновления они все имеют "имена" к тому же есть возможность отключить автоматическое..Основное там идет по защите..Да и какая версия СС ..бывает "слетает ломалка" после обновлений...
Nick MM вне форума   Ответить с цитированием Вверх
Старый 25.04.2017, 11:46   #7
vovke
Просветлённый
 
Аватар для vovke
 
Регистрация: 09.04.2010
Адрес: Абакан
Сообщений: 465
Сказал(а) спасибо: 88
Поблагодарили 305 раз(а) в 167 сообщениях
Вес репутации: 446
vovke has much to be proud ofvovke has much to be proud ofvovke has much to be proud ofvovke has much to be proud of
По умолчанию

Цитата:
Сообщение от Nick MM Посмотреть сообщение
только на флуд и хватает ума...
Ну у тебя то "ума" всяко на больше хватит.
Давай, позорься, я даже мешать не стану.

ts ты хоть комп пробовал перезагрузить?
vovke вне форума   Ответить с цитированием Вверх
Старый 25.04.2017, 20:22   #8
laronov
Новичок
 
Регистрация: 26.01.2010
Сообщений: 6
Сказал(а) спасибо: 0
Поблагодарили 0 раз(а) в 0 сообщениях
Вес репутации: 0
laronov has a spectacular aura about
По умолчанию

Коротенькие видеофрагменты выложил тут [Для просмотра данной ссылки нужно зарегистрироваться]

ЗЫ комп, естественно перезагружал
laronov вне форума   Ответить с цитированием Вверх
Старый 26.04.2017, 01:28   #9
vovke
Просветлённый
 
Аватар для vovke
 
Регистрация: 09.04.2010
Адрес: Абакан
Сообщений: 465
Сказал(а) спасибо: 88
Поблагодарили 305 раз(а) в 167 сообщениях
Вес репутации: 446
vovke has much to be proud ofvovke has much to be proud ofvovke has much to be proud ofvovke has much to be proud of
По умолчанию

Ну что тебе сказать?
Ты будешь смеяться наверное, но у меня даже фотошоп открыл Bad файл.
Что в общем-то естесственно.
Премьер CS6 тоже не подавился
Ну что тебе посоветовать?
Не гнаться за модой и спокойно работать на Win 7 и премьере в районе Cs6 или CC
Хотя вот АЕ 2016 открыла. Но задумалась основательно. Вообще новые версии тугодумы редкостные
Ну или ищи чего там тебе установила/обновила твоя 10ка и каждый раз включая комп трясись, что у тебя сегодня не откроется.
Ну можно попробовать перепаковать мтски в мп4 авидемуксом.
Может как крайний вариант и сойдёт
Или разжать в лосслесс, что более правильно.
Я использую CineForm
vovke вне форума   Ответить с цитированием Вверх
Старый 26.04.2017, 07:44   #10
laronov
Новичок
 
Регистрация: 26.01.2010
Сообщений: 6
Сказал(а) спасибо: 0
Поблагодарили 0 раз(а) в 0 сообщениях
Вес репутации: 0
laronov has a spectacular aura about
По умолчанию

Так у меня тоже оба видеофрагмента открываются везде кроме Premiere.
При этом, в Premiere bad.mts не воспроизвоидтся не только на таймлайне, но и в окне "источник"...

Попробую переустановить Premiere, может поможет...
laronov вне форума   Ответить с цитированием Вверх
Ответ

Опции темы

Ваши права в разделе
Вы не можете создавать новые темы
Вы не можете отвечать в темах
Вы не можете прикреплять вложения
Вы не можете редактировать свои сообщения

BB коды Вкл.
Смайлы Вкл.
[IMG] код Вкл.
HTML код Выкл.

Быстрый переход

Похожие темы
Тема Автор Раздел Ответов Последнее сообщение
Пропали эскизы некоторых видеофайлов. WIN7 ВячеславKZ Windows XP, Windows Vista, Windows 7, Windows 8 6 03.11.2015 06:02
Не воспроизводится видео ArCr Общие вопросы по видеомонтажу 0 28.03.2012 18:14
DVD диск воспроизводится с помехами Filmina Общие вопросы по видеомонтажу 25 11.01.2012 19:50
Не полностью воспроизводится фильм vlad3773 Программы DVD авторинга 1 04.04.2011 22:29
После пережатия отсутствует звук на некоторых DVD плеерах kanadin Общие вопросы по видеомонтажу 13 18.01.2011 17:12


Часовой пояс GMT +1, время: 01:00.




Powered by vBulletin® Version 3.8.3
Copyright ©2000 - 2020, Jelsoft Enterprises Ltd. Перевод: zCarot


Рейтинг@Mail.ru