Videoforum - форум о видео и не только!


Вернуться   Videoforum - форум о видео и не только! > Видеосъёмка и монтаж. > Видеокамеры

Важная информация

Видеокамеры Обсуждение моделей камер, обзор новинок, консультации по выбору, прочее...

Ответ
 
Опции темы
Старый 01.06.2014, 18:36   #1
kurkoff1965
Знаток
 
Аватар для kurkoff1965
 
Регистрация: 01.07.2013
Адрес: Уфа
Возраст: 53
Сообщений: 49
Сказал(а) спасибо: 21
Поблагодарили 5 раз(а) в 5 сообщениях
Вес репутации: 0
kurkoff1965 has a little shameless behaviour in the past
По умолчанию Sony HDR-CX240E для начинающего.

Купил тут на днях камеру Sony HDR-CX240E, выбирал простейшую. Если кто-то с ней работал и может дать оценку объясните все ее минусы и плюсы.
Меня интересует возможность перекидывания отснятого материала на ноут, а также в этой камере по умолчанию запись идет одновременно в двух форматах, можно ли один отключить для экономии карты памяти. И какую карту надо брать для выработки аккумулятора по полной. То есть: один заряженный аккумулятор - одна карта памяти определенного объема (какого именно)? Ну и если есть то конечно интересует более полные характеристики этой машинки, так как в паспорте и на всяких Маркетах описание не самое подробное.
kurkoff1965 вне форума   Ответить с цитированием Вверх
Реклама на форуме
Старый 02.06.2014, 18:58   #2
kurkoff1965
Знаток
 
Аватар для kurkoff1965
 
Регистрация: 01.07.2013
Адрес: Уфа
Возраст: 53
Сообщений: 49
Сказал(а) спасибо: 21
Поблагодарили 5 раз(а) в 5 сообщениях
Вес репутации: 0
kurkoff1965 has a little shameless behaviour in the past
По умолчанию

И почему вот такое видео идет без звука?
Видео в формате MPEG-TS (.m2ts) в Media Player Classic Home Cinema идет без звука и с некоторыми искажениями по видео, но то же самое в VirtualDub с самого начала со звуком и без искажений видео. Парадокс однако...

Общее
Идентификатор : 0 (0x0)
Полное имя : C:\Users\Сергей\Desktop\видео\02.06.2014\201406022 24814.m2ts
Формат : BDAV
Формат/Информация : Blu-ray Video
Размер файла : 2,74 Гбайт
Продолжительность : 31 м.
Режим общего битрейта : Переменный
Общий поток : 12,3 Мбит/сек
Максимальный общий битрейт : 18,0 Мбит/сек

Видео
Идентификатор : 4113 (0x1011)
Идентификатор меню : 1 (0x1)
Формат : AVC
Формат/Информация : Advanced Video Codec
Профиль формата : [email protected]
Параметр CABAC формата : Да
Параметр ReFrames формата : 2 кадра
Параметр GOP формата : M=2, N=13
Идентификатор кодека : 27
Продолжительность : 31 м.
Вид битрейта : Переменный
Битрейт : 11,5 Мбит/сек
Максимальный битрейт : 16,0 Мбит/сек
Ширина : 1440 пикселей
Высота : 1080 пикселей
Соотношение сторон : 16:9
Частота кадров : 25,000 кадров/сек
Цветовое пространство : YUV
Субдискретизация насыщенности : 4:2:0
Битовая глубина : 8 бит
Тип развёртки : Чересстрочная
Порядок развёртки : Верхнее поле первое
Бит/(Пиксели*Кадры) : 0.296
Размер потока : 2,57 Гбайт (94%)

Аудио
Идентификатор : 4352 (0x1100)
Идентификатор меню : 1 (0x1)
Формат : AC-3
Формат/Информация : Audio Coding 3
Расширение режима : CM (complete main)
Параметр Endianness формата : Big
Идентификатор кодека : 129
Продолжительность : 31 м.
Вид битрейта : Постоянный
Битрейт : 256 Кбит/сек
Каналы : 2 канала
Расположение каналов : Front: L R
Частота : 48,0 КГц
Битовая глубина : 16 бит
Метод сжатия : С потерями
Задержка видео : -80 мс.
Размер потока : 58,5 Мбайт (2%)

Текст
Идентификатор : 4608 (0x1200)
Идентификатор меню : 1 (0x1)
Формат : PGS
Идентификатор кодека : 144
Продолжительность : 31 м.
Задержка видео : -80 мс.

kurkoff1965 вне форума   Ответить с цитированием Вверх
Ответ

Опции темы

Ваши права в разделе
Вы не можете создавать новые темы
Вы не можете отвечать в темах
Вы не можете прикреплять вложения
Вы не можете редактировать свои сообщения

BB коды Вкл.
Смайлы Вкл.
[IMG] код Вкл.
HTML код Выкл.

Быстрый переход

Похожие темы
Тема Автор Раздел Ответов Последнее сообщение
Какой петличный микрофон для видеокамеры SONY NX5 лучше - Sennheiser MKE2 или Sony EC sasha20957 Видеокамеры 0 21.04.2013 11:30
Комплект для начинающего свадебщика Andza Покупка-продажа 0 14.03.2012 09:20
Профессиональная видеокамера Sony Z1 (аналог Sony FX1) mishan Покупка-продажа 1 27.02.2012 18:15
Продам Б/У SONY DSR-PD170P (2шт) SONY DCR-VX2100E (3шт) Александр_ua Покупка-продажа 1 25.05.2010 21:02
Продаю камеры Sony DCR-VX2100E, Sony DCR-TRV 940 dvcamstudio Покупка-продажа 0 21.04.2010 20:06


Часовой пояс GMT +1, время: 23:29.




Powered by vBulletin® Version 3.8.3
Copyright ©2000 - 2018, Jelsoft Enterprises Ltd. Перевод: zCarot


Рейтинг@Mail.ru