Videoforum - форум о видео и не только!


Вернуться   Videoforum - форум о видео и не только! > Видеосъёмка и монтаж. > Общие вопросы по видеомонтажу

Важная информация

Общие вопросы по видеомонтажу Задаем любые вопросы по теме видеомонтажа

Ответ
 
Опции темы
Старый 05.10.2011, 13:55   #1
Yuzner
Новичок
 
Регистрация: 05.10.2011
Возраст: 31
Сообщений: 5
Сказал(а) спасибо: 0
Поблагодарили 0 раз(а) в 0 сообщениях
Вес репутации: 0
Yuzner has a spectacular aura about
По умолчанию Качественная конвертация видео!

Здрасте народ!
Я нуб по всему этому-и поэтому очень хочу кое че зунать (надеюся правильную тему выбрал))

Так вот у меня есть внеш. жест диск (1,5 ТБ) их которых свободно всего 90 Гб уже((
Из них большее место занимают видео (сериалы и все такое)! У меня они весят (сериалы) по 300-500 Мб каждый -и поэтому хочу уменьшить их вес до 80-110 Мб с наименьшей потерей качества!
Слышал лучше всего конвертировать их в mkv -типа они лучше сжимают!

Частенько видел в инете одни и те же видушки которые например: один весит примерно 150 Мб, а другой 90 Мб, но кач-ва второго почему то лучше первого!(Думаю плохой конвертации видео - может быть)
Так вот недавно вообще увидел видео весящий всего 70 Мб, но с качеством ничуть не хуже чем такое же видео с размером около 200+ Мб!

Вот и вопрос- прошу знающий и опытных людей-помогите выбрать лучший конвертор для видео - и подскажите все параметры и настройки для лучшей конвертации чтобы потеряло побольше веса, но поменьше качества!
P.S. При параметрах и настройках имею ввиду битрейты видео и аудио, размер видео и все остальное(не очень во всем разбираюсь). И чем все конвертировать лучше!
Заранее благодарен)
Yuzner вне форума   Ответить с цитированием Вверх
Реклама на форуме
Старый 05.10.2011, 15:49   #2
Nick MM
Banned
 
Регистрация: 01.02.2010
Возраст: 62
Сообщений: 641
Сказал(а) спасибо: 85
Поблагодарили 337 раз(а) в 285 сообщениях
Вес репутации: 0
Nick MM has much to be proud ofNick MM has much to be proud ofNick MM has much to be proud ofNick MM has much to be proud of
Отправить сообщение для Nick MM с помощью Skype™
По умолчанию

Ничего у вас не получиться, кардинально уменьшить размер с наименьшими потерями НЕЛЬЗЯ. Перекодирование процесс трудоемкий и требует определенных знаний.
То, что вы видели хорошего качества и меньшего размера говорит о качественном исходнике в первую очередь.
Можете попробовать, конверторов в сети огромное количество (поиск в помощь) но принцип у всех один: размер и качество - взаимно противоположны.
Nick MM вне форума   Ответить с цитированием Вверх
Старый 05.10.2011, 18:58   #3
Yuzner
Новичок
 
Регистрация: 05.10.2011
Возраст: 31
Сообщений: 5
Сказал(а) спасибо: 0
Поблагодарили 0 раз(а) в 0 сообщениях
Вес репутации: 0
Yuzner has a spectacular aura about
По умолчанию

ну я же отметил что потеря качество конечно должна быть!
Но ведь просто попросил как сделать с наименьшой потерей-т.е. потери должны быть токо чтобы они были как можно меньше))вот тутто надо узнать мнение профи или спецов в этом деле)поэтому и спрашиваю)
Yuzner вне форума   Ответить с цитированием Вверх
Старый 05.10.2011, 21:12   #4
Nick MM
Banned
 
Регистрация: 01.02.2010
Возраст: 62
Сообщений: 641
Сказал(а) спасибо: 85
Поблагодарили 337 раз(а) в 285 сообщениях
Вес репутации: 0
Nick MM has much to be proud ofNick MM has much to be proud ofNick MM has much to be proud ofNick MM has much to be proud of
Отправить сообщение для Nick MM с помощью Skype™
По умолчанию

хорошо, давайте мне параметры вашего фильма: формат,кодек, битрейт, размеры т.е все (медиа данные) и я попробую подобрать вам приемлимое кодирование и софт соответственно
Nick MM вне форума   Ответить с цитированием Вверх
Старый 06.10.2011, 05:10   #5
Yuzner
Новичок
 
Регистрация: 05.10.2011
Возраст: 31
Сообщений: 5
Сказал(а) спасибо: 0
Поблагодарили 0 раз(а) в 0 сообщениях
Вес репутации: 0
Yuzner has a spectacular aura about
По умолчанию

спасибо))

1ый)(т.е. первый сериал)

Format : MPEG-4
Format profile : Base Media
Codec ID : isom
File size : 300 MiB
Duration : 23mn 39s
Overall bit rate : 1 775 Kbps
Encoded date : UTC 2008-05-30 23:20:04
Tagged date : UTC 2008-05-30 23:20:04

Video
ID : 1
Format : AVC
Format/Info : Advanced Video Codec
Format profile : [email protected]
Format settings, CABAC : No
Format settings, ReFrames : 6 frames
Codec ID : avc1
Codec ID/Info : Advanced Video Coding
Duration : 23mn 39s
Bit rate mode : Variable
Bit rate : 1 640 Kbps
Maximum bit rate : 10.1 Mbps
Width : 1 280 pixels
Height : 720 pixels
Display aspect ratio : 16:9
Frame rate mode : Constant
Frame rate : 23.976 fps
Color space : YUV
Chroma subsampling : 4:2:0
Bit depth : 8 bits
Scan type : Progressive
Bits/(Pixel*Frame) : 0.074
Stream size : 278 MiB (92%)

Audio
ID : 2
Format : AAC
Format/Info : Advanced Audio Codec
Format profile : LC
Codec ID : 40
Duration : 23mn 39s
Bit rate mode : Variable
Bit rate : 132.3 Kbps
Maximum bit rate : 151 Kbps
Channel(s) : 2 channels
Channel positions : Front: L R
Sampling rate : 48.0 KHz
Compression mode : Lossy
Stream size : 22.1 MiB (7%)
Yuzner вне форума   Ответить с цитированием Вверх
Старый 06.10.2011, 05:12   #6
Yuzner
Новичок
 
Регистрация: 05.10.2011
Возраст: 31
Сообщений: 5
Сказал(а) спасибо: 0
Поблагодарили 0 раз(а) в 0 сообщениях
Вес репутации: 0
Yuzner has a spectacular aura about
По умолчанию

Второй))

Format : Matroska
File size : 164 MiB
Duration : 23mn 30s
Overall bit rate : 976 Kbps
Encoded date : UTC 2008-07-24 15:21:47
Writing application : mkvmerge v2.2.0 ('Turn It On Again') built on Mar 4 2008 12:58:26
Writing library : libebml v0.7.7 + libmatroska v0.8.1

Video
ID : 1
Format : AVC
Format/Info : Advanced Video Codec
Format profile : [email protected]
Format settings, CABAC : Yes
Format settings, ReFrames : 3 frames
Codec ID : V_MPEG4/ISO/AVC
Duration : 23mn 30s
Width : 720 pixels
Height : 536 pixels
Display aspect ratio : 4:3
Frame rate : 23.976 fps
Color space : YUV
Chroma subsampling : 4:2:0
Bit depth : 8 bits
Scan type : Progressive

Audio
ID : 2
Format : AAC
Format/Info : Advanced Audio Codec
Format profile : LC
Codec ID : A_AAC
Duration : 23mn 30s
Channel(s) : 2 channels
Channel positions : Front: L R
Sampling rate : 48.0 KHz
Compression mode : Lossy
Yuzner вне форума   Ответить с цитированием Вверх
Старый 06.10.2011, 05:14   #7
Yuzner
Новичок
 
Регистрация: 05.10.2011
Возраст: 31
Сообщений: 5
Сказал(а) спасибо: 0
Поблагодарили 0 раз(а) в 0 сообщениях
Вес репутации: 0
Yuzner has a spectacular aura about
По умолчанию

и третий))
Format : AVI
Format/Info : Audio Video Interleave
File size : 290 MiB
Duration : 24mn 24s
Overall bit rate : 1 661 Kbps
Writing application : VirtualDubMod 1.5.10.2 (build 2540/release)
Writing library : VirtualDubMod build 2540/release

Video
ID : 0
Format : MPEG-4 Visual
Format profile : Advanced [email protected]
Format settings, BVOP : 2
Format settings, QPel : No
Format settings, GMC : No warppoints
Format settings, Matrix : Default (H.263)
Codec ID : XVID
Codec ID/Hint : XviD
Duration : 24mn 24s
Bit rate : 1 296 Kbps
Width : 704 pixels
Height : 396 pixels
Display aspect ratio : 16:9
Frame rate : 23.976 fps
Color space : YUV
Chroma subsampling : 4:2:0
Bit depth : 8 bits
Scan type : Progressive
Compression mode : Lossy
Bits/(Pixel*Frame) : 0.194
Stream size : 226 MiB (78%)
Writing library : XviD 1.2.1 (UTC 2008-12-04)

Audio #1
ID : 1
Format : MPEG Audio
Format version : Version 1
Format profile : Layer 3
Mode : Joint stereo
Codec ID : 55
Codec ID/Hint : MP3
Duration : 24mn 24s
Bit rate mode : Constant
Bit rate : 160 Kbps
Channel(s) : 2 channels
Sampling rate : 48.0 KHz
Compression mode : Lossy
Stream size : 27.9 MiB (10%)
Alignment : Aligned on interleaves
Interleave, duration : 42 ms (1.00 video frame)
Interleave, preload duration : 504 ms

Audio #2

ID : 2
Format : MPEG Audio
Format version : Version 1
Format profile : Layer 3
Mode : Joint stereo
Mode extension : MS Stereo
Codec ID : 55
Codec ID/Hint : MP3
Duration : 24mn 24s
Bit rate mode : Constant
Bit rate : 192 Kbps
Channel(s) : 2 channels
Sampling rate : 48.0 KHz
Compression mode : Lossy
Stream size : 33.5 MiB (12%)
Alignment : Aligned on interleaves
Interleave, duration : 42 ms (1.00 video frame)
Interleave, preload duration : 504 ms
Writing library : LAME3.98r
Encoding settings : -m j -V 4 -q 2 -lowpass 18.6 -b 192

Все данные взял из медиаинфо))
Заранее благодарю)
Yuzner вне форума   Ответить с цитированием Вверх
Ответ

Опции темы

Ваши права в разделе
Вы не можете создавать новые темы
Вы не можете отвечать в темах
Вы не можете прикреплять вложения
Вы не можете редактировать свои сообщения

BB коды Вкл.
Смайлы Вкл.
[IMG] код Вкл.
HTML код Выкл.

Быстрый переход

Похожие темы
Тема Автор Раздел Ответов Последнее сообщение
Как вставить видео на форум с серверов youtube.com и других видео хостингов Vitaly Правила форума и ЧаВо 14 24.04.2013 19:43
Конвертация SCR в AVI McAm Кодеки и кодеры, кодирование и конвертация. 0 25.02.2011 17:57
наложение видео на видео sergey291976 Общие вопросы по видеомонтажу 9 24.02.2011 09:51
ACD Systems FotoSlate 4.0 качественная фотопечать phantom72 Программы для работы с изображениями. 0 21.04.2010 20:23


Часовой пояс GMT +1, время: 10:15.




Powered by vBulletin® Version 3.8.3
Copyright ©2000 - 2018, Jelsoft Enterprises Ltd. Перевод: zCarot


Рейтинг@Mail.ru