Videoforum - форум о видео и не только!


Вернуться   Videoforum - форум о видео и не только! > Видеосъёмка и монтаж. > Общие вопросы по видеомонтажу > Adobe Premiere / Adobe Premiere PRO

Важная информация

Adobe Premiere / Adobe Premiere PRO Здесь решаем вопросы возникающие при работе в программах Adobe Premiere (все версии)

Ответ
 
Опции темы
Старый 27.04.2022, 19:18   #1
Tamago4a
Ученик
 
Регистрация: 20.03.2021
Возраст: 26
Сообщений: 15
Сказал(а) спасибо: 1
Поблагодарили 0 раз(а) в 0 сообщениях
Вес репутации: 0
Tamago4a has a spectacular aura about
По умолчанию Прошу вашего экспертного мнения о качестве исходников и экспорта

Когда-то столкнулся с проблемой плохого качества видео после залива на ютуб. Понял что проблема скорее всего в конфиге пк. Собрал новый ПК. Записал бенчмарк игры на разных настройках игры и получил суммарно 10 файлов. Каждый был записан с разными настройками. Потом в Premiere Pro закинул все файлы по очереди и отрендерил 2 видео. Одно в CBR и другое, с аналогичными настройками, только в VBR.

Прошу вашего экспертного мнения о качестве исходников и экспорта. Будет круто если мне укажут на мои ошибки и т. д. Только прошу писать прямо, а не какими-то намёками и подсказками. Так же обращаю внимание, что в последующем видео будут загружаться на youtube и есть такая тенденция, что youtube портит качество. Не знаю точно от чего это зависит, но одна и так же игра у других людей может выглядеть на youtube'е лучше чем у меня.

Видеофайлы для детального изучения вопроса [Для просмотра данной ссылки нужно зарегистрироваться]
Заранее извиняюсь что архив весит 9,5 ГБ, но если скидывать на яндекс диск видео по отдельности, то яндекс диск их начнёт конвертировать под себя.

Предыдущая тема [Для просмотра данной ссылки нужно зарегистрироваться]

Конфиг ПК i5-10400f, 3060 Ti, 16 GB RAM.

Как выглядят настройки записи в bandicam. Прикладываю просто для ознакомления с возможностями софта и чтобы было понятно как были получены с 1 по 10 видеофайлы:
Скрытый текст
Настройки записи bandicam в CBR:
Скрытый текст





Настройки записи bandicam в VBR:
Скрытый текст





Настройки рендеринга:
Скрытый текст
CBR:
Скрытый текст

VBR:
Скрытый текст


Настройки и свойства эпизода:
Скрытый текст



Теперь Mediainfo по каждому файлу:
Скрытый текст
1vbr 4 4 4 без потерь.mp4
Скрытый текст
Общее
Полное имя : A:\самолёт сбит\бенчмарк wt\1vbr 4 4 4 без потерь.mp4
Формат : MPEG-4
Профиль формата : Base Media
Идентификатор кодека : isom (mp41)
Размер файла : 2,75 Гбайт
Продолжительность : 1 м. 3 с.
Режим общего битрейта : Переменный
Общий поток : 374 Мбит/сек
Дата кодирования : UTC 2022-04-11 21:25:48
Дата пометки : UTC 2022-04-11 21:25:48
Программа кодирования : Bandicam 4.5.4.1624 / DX11 / Nvidia NVENC

Видео
Идентификатор : 1
Формат : AVC
Формат/Информация : Advanced Video Codec
Профиль формата : High 4:4:4 [email protected]
Настройки формата : 3 Ref Frames
Параметр CABAC формата : Нет
Параметр RefFrames формата : 3 кадра
Идентификатор кодека : avc1
Идентификатор кодека/Информация : Advanced Video Coding
Продолжительность : 1 м. 3 с.
Битрейт : 374 Мбит/сек
Ширина : 1 920 пикселей
Высота : 1 080 пикселей
Соотношение сторон : 16:9
Режим частоты кадров : Переменный
Частота кадров : 55,687 кадров/сек
Минимальная частота кадров : 2,143 кадра/сек
Максимальная частота кадров : 60,060 кадров/сек
Частота кадров в оригинале : 60,000 кадров/сек
Субдискретизация насыщенности : 4:4:4
Битовая глубина : 8 бит
Тип развёртки : Прогрессивная
Бит/(Пиксели*Кадры) : 3.236
Размер потока : 2,75 Гбайт (100%)
Язык : English
Дата кодирования : UTC 2022-04-11 21:25:48
Дата пометки : UTC 2022-04-11 21:25:48
Codec configuration box : avcC


2vbr 4 4 4 100.mp4
Скрытый текст
Общее
Полное имя : A:\самолёт сбит\бенчмарк wt\2vbr 4 4 4 100.mp4
Формат : MPEG-4
Профиль формата : Base Media
Идентификатор кодека : isom (mp41)
Размер файла : 483 Мбайт
Продолжительность : 1 м. 4 с.
Режим общего битрейта : Переменный
Общий поток : 62,6 Мбит/сек
Дата кодирования : UTC 2022-04-11 21:27:58
Дата пометки : UTC 2022-04-11 21:27:58
Программа кодирования : Bandicam 4.5.4.1624 / DX11 / Nvidia NVENC

Видео
Идентификатор : 1
Формат : AVC
Формат/Информация : Advanced Video Codec
Профиль формата : High 4:4:4 [email protected]
Настройки формата : 3 Ref Frames
Параметр CABAC формата : Нет
Параметр RefFrames формата : 3 кадра
Идентификатор кодека : avc1
Идентификатор кодека/Информация : Advanced Video Coding
Продолжительность : 1 м. 4 с.
Битрейт : 62,5 Мбит/сек
Ширина : 1 920 пикселей
Высота : 1 080 пикселей
Соотношение сторон : 16:9
Режим частоты кадров : Переменный
Частота кадров : 58,055 кадров/сек
Минимальная частота кадров : 4,286 кадра/сек
Максимальная частота кадров : 60,060 кадров/сек
Частота кадров в оригинале : 60,000 кадров/сек
Субдискретизация насыщенности : 4:4:4
Битовая глубина : 8 бит
Тип развёртки : Прогрессивная
Бит/(Пиксели*Кадры) : 0.519
Размер потока : 482 Мбайт (100%)
Язык : English
Дата кодирования : UTC 2022-04-11 21:27:58
Дата пометки : UTC 2022-04-11 21:27:58
Codec configuration box : avcC


3vbr 4 4 4 70.mp4
Скрытый текст
Общее
Полное имя : A:\самолёт сбит\бенчмарк wt\3vbr 4 4 4 70.mp4
Формат : MPEG-4
Профиль формата : Base Media
Идентификатор кодека : isom (mp41)
Размер файла : 152 Мбайт
Продолжительность : 1 м. 4 с.
Режим общего битрейта : Переменный
Общий поток : 19,6 Мбит/сек
Дата кодирования : UTC 2022-04-11 21:29:57
Дата пометки : UTC 2022-04-11 21:29:57
Программа кодирования : Bandicam 4.5.4.1624 / DX11 / Nvidia NVENC

Видео
Идентификатор : 1
Формат : AVC
Формат/Информация : Advanced Video Codec
Профиль формата : High 4:4:4 [email protected]
Настройки формата : 3 Ref Frames
Параметр CABAC формата : Нет
Параметр RefFrames формата : 3 кадра
Идентификатор кодека : avc1
Идентификатор кодека/Информация : Advanced Video Coding
Продолжительность : 1 м. 4 с.
Битрейт : 19,5 Мбит/сек
Ширина : 1 920 пикселей
Высота : 1 080 пикселей
Соотношение сторон : 16:9
Режим частоты кадров : Переменный
Частота кадров : 56,246 кадров/сек
Минимальная частота кадров : 2,069 кадра/сек
Максимальная частота кадров : 60,060 кадров/сек
Частота кадров в оригинале : 60,000 кадров/сек
Субдискретизация насыщенности : 4:4:4
Битовая глубина : 8 бит
Тип развёртки : Прогрессивная
Бит/(Пиксели*Кадры) : 0.167
Размер потока : 151 Мбайт (99%)
Язык : English
Дата кодирования : UTC 2022-04-11 21:29:57
Дата пометки : UTC 2022-04-11 21:29:57
Codec configuration box : avcC


4cbr main 100000.mp4
Скрытый текст
Общее
Полное имя : A:\самолёт сбит\бенчмарк wt\4cbr main 100000.mp4
Формат : MPEG-4
Профиль формата : Base Media
Идентификатор кодека : isom (mp41)
Размер файла : 341 Мбайт
Продолжительность : 1 м. 4 с.
Режим общего битрейта : Переменный
Общий поток : 44,2 Мбит/сек
Дата кодирования : UTC 2022-04-11 22:19:00
Дата пометки : UTC 2022-04-11 22:19:00
Программа кодирования : Bandicam 4.5.4.1624 / DX11 / Nvidia NVENC

Видео
Идентификатор : 1
Формат : AVC
Формат/Информация : Advanced Video Codec
Профиль формата : [email protected]
Настройки формата : CABAC / 3 Ref Frames
Параметр CABAC формата : Да
Параметр RefFrames формата : 3 кадра
Идентификатор кодека : avc1
Идентификатор кодека/Информация : Advanced Video Coding
Продолжительность : 1 м. 4 с.
Битрейт : 44,1 Мбит/сек
Ширина : 1 920 пикселей
Высота : 1 080 пикселей
Соотношение сторон : 16:9
Режим частоты кадров : Переменный
Частота кадров : 58,269 кадров/сек
Минимальная частота кадров : 4,000 кадра/сек
Максимальная частота кадров : 60,060 кадров/сек
Частота кадров в оригинале : 60,000 кадров/сек
Цветовое пространство : YUV
Субдискретизация насыщенности : 4:2:0
Битовая глубина : 8 бит
Тип развёртки : Прогрессивная
Бит/(Пиксели*Кадры) : 0.365
Размер потока : 340 Мбайт (100%)
Язык : English
Дата кодирования : UTC 2022-04-11 22:19:00
Дата пометки : UTC 2022-04-11 22:19:00
Codec configuration box : avcC


5cbr high 100000.mp4
Скрытый текст
Общее
Полное имя : A:\самолёт сбит\бенчмарк wt\5cbr high 100000.mp4
Формат : MPEG-4
Профиль формата : Base Media
Идентификатор кодека : isom (mp41)
Размер файла : 339 Мбайт
Продолжительность : 1 м. 4 с.
Режим общего битрейта : Переменный
Общий поток : 43,9 Мбит/сек
Дата кодирования : UTC 2022-04-11 22:16:57
Дата пометки : UTC 2022-04-11 22:16:57
Программа кодирования : Bandicam 4.5.4.1624 / DX11 / Nvidia NVENC

Видео
Идентификатор : 1
Формат : AVC
Формат/Информация : Advanced Video Codec
Профиль формата : [email protected]
Настройки формата : CABAC / 3 Ref Frames
Параметр CABAC формата : Да
Параметр RefFrames формата : 3 кадра
Идентификатор кодека : avc1
Идентификатор кодека/Информация : Advanced Video Coding
Продолжительность : 1 м. 4 с.
Битрейт : 43,7 Мбит/сек
Ширина : 1 920 пикселей
Высота : 1 080 пикселей
Соотношение сторон : 16:9
Режим частоты кадров : Переменный
Частота кадров : 58,288 кадров/сек
Минимальная частота кадров : 4,000 кадра/сек
Максимальная частота кадров : 60,060 кадров/сек
Частота кадров в оригинале : 60,000 кадров/сек
Цветовое пространство : YUV
Субдискретизация насыщенности : 4:2:0
Битовая глубина : 8 бит
Тип развёртки : Прогрессивная
Бит/(Пиксели*Кадры) : 0.362
Размер потока : 338 Мбайт (100%)
Язык : English
Дата кодирования : UTC 2022-04-11 22:16:57
Дата пометки : UTC 2022-04-11 22:16:57
Codec configuration box : avcC


6cbr 4 4 4 без потерь.mp4
Скрытый текст
Общее
Полное имя : A:\самолёт сбит\бенчмарк wt\6cbr 4 4 4 без потерь.mp4
Формат : MPEG-4
Профиль формата : Base Media
Идентификатор кодека : isom (mp41)
Размер файла : 3,00 Гбайт
Продолжительность : 1 м. 4 с.
Режим общего битрейта : Переменный
Общий поток : 403 Мбит/сек
Дата кодирования : UTC 2022-04-11 21:34:32
Дата пометки : UTC 2022-04-11 21:34:32
Программа кодирования : Bandicam 4.5.4.1624 / DX11 / Nvidia NVENC

Видео
Идентификатор : 1
Формат : AVC
Формат/Информация : Advanced Video Codec
Профиль формата : High 4:4:4 [email protected]
Настройки формата : 3 Ref Frames
Параметр CABAC формата : Нет
Параметр RefFrames формата : 3 кадра
Идентификатор кодека : avc1
Идентификатор кодека/Информация : Advanced Video Coding
Продолжительность : 1 м. 4 с.
Битрейт : 403 Мбит/сек
Ширина : 1 920 пикселей
Высота : 1 080 пикселей
Соотношение сторон : 16:9
Режим частоты кадров : Переменный
Частота кадров : 58,408 кадров/сек
Минимальная частота кадров : 4,000 кадра/сек
Максимальная частота кадров : 60,060 кадров/сек
Частота кадров в оригинале : 60,000 кадров/сек
Субдискретизация насыщенности : 4:4:4
Битовая глубина : 8 бит
Тип развёртки : Прогрессивная
Бит/(Пиксели*Кадры) : 3.324
Размер потока : 3,00 Гбайт (100%)
Язык : English
Дата кодирования : UTC 2022-04-11 21:34:32
Дата пометки : UTC 2022-04-11 21:34:32
Codec configuration box : avcC


7cbr 4 4 4 100000.mp4
Скрытый текст
Общее
Полное имя : A:\самолёт сбит\бенчмарк wt\7cbr 4 4 4 100000.mp4
Формат : MPEG-4
Профиль формата : Base Media
Идентификатор кодека : isom (mp41)
Размер файла : 377 Мбайт
Продолжительность : 1 м. 4 с.
Режим общего битрейта : Переменный
Общий поток : 49,0 Мбит/сек
Дата кодирования : UTC 2022-04-11 22:07:05
Дата пометки : UTC 2022-04-11 22:07:05
Программа кодирования : Bandicam 4.5.4.1624 / DX11 / Nvidia NVENC

Видео
Идентификатор : 1
Формат : AVC
Формат/Информация : Advanced Video Codec
Профиль формата : High 4:4:4 [email protected]
Настройки формата : 3 Ref Frames
Параметр CABAC формата : Нет
Параметр RefFrames формата : 3 кадра
Идентификатор кодека : avc1
Идентификатор кодека/Информация : Advanced Video Coding
Продолжительность : 1 м. 4 с.
Битрейт : 48,9 Мбит/сек
Ширина : 1 920 пикселей
Высота : 1 080 пикселей
Соотношение сторон : 16:9
Режим частоты кадров : Переменный
Частота кадров : 58,277 кадров/сек
Минимальная частота кадров : 3,750 кадра/сек
Максимальная частота кадров : 60,060 кадров/сек
Частота кадров в оригинале : 60,000 кадров/сек
Субдискретизация насыщенности : 4:4:4
Битовая глубина : 8 бит
Тип развёртки : Прогрессивная
Бит/(Пиксели*Кадры) : 0.405
Размер потока : 376 Мбайт (100%)
Язык : English
Дата кодирования : UTC 2022-04-11 22:07:05
Дата пометки : UTC 2022-04-11 22:07:05
Codec configuration box : avcC


8cbr 4 4 4 70000.mp4
Скрытый текст
Общее
Полное имя : A:\самолёт сбит\бенчмарк wt\8cbr 4 4 4 70000.mp4
Формат : MPEG-4
Профиль формата : Base Media
Идентификатор кодека : isom (mp41)
Размер файла : 348 Мбайт
Продолжительность : 1 м. 4 с.
Режим общего битрейта : Переменный
Общий поток : 45,5 Мбит/сек
Дата кодирования : UTC 2022-04-11 22:09:21
Дата пометки : UTC 2022-04-11 22:09:21
Программа кодирования : Bandicam 4.5.4.1624 / DX11 / Nvidia NVENC

Видео
Идентификатор : 1
Формат : AVC
Формат/Информация : Advanced Video Codec
Профиль формата : High 4:4:4 [email protected]
Настройки формата : 3 Ref Frames
Параметр CABAC формата : Нет
Параметр RefFrames формата : 3 кадра
Идентификатор кодека : avc1
Идентификатор кодека/Информация : Advanced Video Coding
Продолжительность : 1 м. 4 с.
Битрейт : 45,3 Мбит/сек
Ширина : 1 920 пикселей
Высота : 1 080 пикселей
Соотношение сторон : 16:9
Режим частоты кадров : Переменный
Частота кадров : 56,244 кадров/сек
Минимальная частота кадров : 2,143 кадра/сек
Максимальная частота кадров : 60,060 кадров/сек
Частота кадров в оригинале : 60,000 кадров/сек
Субдискретизация насыщенности : 4:4:4
Битовая глубина : 8 бит
Тип развёртки : Прогрессивная
Бит/(Пиксели*Кадры) : 0.389
Размер потока : 347 Мбайт (100%)
Язык : English
Дата кодирования : UTC 2022-04-11 22:09:21
Дата пометки : UTC 2022-04-11 22:09:21
Codec configuration box : avcC


9cbr 4 4 4 50000.mp4
Скрытый текст
Общее
Полное имя : A:\самолёт сбит\бенчмарк wt\9cbr 4 4 4 50000.mp4
Формат : MPEG-4
Профиль формата : Base Media
Идентификатор кодека : isom (mp41)
Размер файла : 284 Мбайт
Продолжительность : 1 м. 4 с.
Режим общего битрейта : Переменный
Общий поток : 37,0 Мбит/сек
Дата кодирования : UTC 2022-04-11 22:11:35
Дата пометки : UTC 2022-04-11 22:11:35
Программа кодирования : Bandicam 4.5.4.1624 / DX11 / Nvidia NVENC

Видео
Идентификатор : 1
Формат : AVC
Формат/Информация : Advanced Video Codec
Профиль формата : High 4:4:4 [email protected]
Настройки формата : 3 Ref Frames
Параметр CABAC формата : Нет
Параметр RefFrames формата : 3 кадра
Идентификатор кодека : avc1
Идентификатор кодека/Информация : Advanced Video Coding
Продолжительность : 1 м. 4 с.
Битрейт : 36,8 Мбит/сек
Ширина : 1 920 пикселей
Высота : 1 080 пикселей
Соотношение сторон : 16:9
Режим частоты кадров : Переменный
Частота кадров : 56,691 кадров/сек
Минимальная частота кадров : 2,400 кадра/сек
Максимальная частота кадров : 60,060 кадров/сек
Частота кадров в оригинале : 60,000 кадров/сек
Субдискретизация насыщенности : 4:4:4
Битовая глубина : 8 бит
Тип развёртки : Прогрессивная
Бит/(Пиксели*Кадры) : 0.313
Размер потока : 283 Мбайт (100%)
Язык : English
Дата кодирования : UTC 2022-04-11 22:11:35
Дата пометки : UTC 2022-04-11 22:11:35
Codec configuration box : avcC


10cbr 4 4 4 10000.mp4
Скрытый текст
Общее
Полное имя : A:\самолёт сбит\бенчмарк wt\10cbr 4 4 4 10000.mp4
Формат : MPEG-4
Профиль формата : Base Media
Идентификатор кодека : isom (mp41)
Размер файла : 61,6 Мбайт
Продолжительность : 1 м. 4 с.
Режим общего битрейта : Переменный
Общий поток : 8 033 Кбит/сек
Дата кодирования : UTC 2022-04-11 22:14:06
Дата пометки : UTC 2022-04-11 22:14:06
Программа кодирования : Bandicam 4.5.4.1624 / DX11 / Nvidia NVENC

Видео
Идентификатор : 1
Формат : AVC
Формат/Информация : Advanced Video Codec
Профиль формата : High 4:4:4 [email protected]
Настройки формата : 3 Ref Frames
Параметр CABAC формата : Нет
Параметр RefFrames формата : 3 кадра
Идентификатор кодека : avc1
Идентификатор кодека/Информация : Advanced Video Coding
Продолжительность : 1 м. 4 с.
Битрейт : 7 906 Кбит/сек
Ширина : 1 920 пикселей
Высота : 1 080 пикселей
Соотношение сторон : 16:9
Режим частоты кадров : Переменный
Частота кадров : 58,213 кадров/сек
Минимальная частота кадров : 4,286 кадра/сек
Максимальная частота кадров : 60,060 кадров/сек
Частота кадров в оригинале : 60,000 кадров/сек
Субдискретизация насыщенности : 4:4:4
Битовая глубина : 8 бит
Тип развёртки : Прогрессивная
Бит/(Пиксели*Кадры) : 0.065
Размер потока : 60,7 Мбайт (98%)
Язык : English
Дата кодирования : UTC 2022-04-11 22:14:06
Дата пометки : UTC 2022-04-11 22:14:06
Codec configuration box : avcC


Итоговый тест рендеринга cbr.mp4
Скрытый текст
Общее
Полное имя : A:\самолёт сбит\бенчмарк wt\Итоговый тест рендеринга cbr.mp4
Формат : MPEG-4
Профиль формата : Base Media / Version 2
Идентификатор кодека : mp42 (mp42/mp41)
Размер файла : 666 Мбайт
Продолжительность : 10 м. 43 с.
Режим общего битрейта : Переменный
Общий поток : 8 678 Кбит/сек
Дата кодирования : UTC 2022-04-12 00:13:58
Дата пометки : UTC 2022-04-12 00:14:22
TIM : 00:00:00:00
TSC : 60
TSZ : 1

Видео
Идентификатор : 1
Формат : AVC
Формат/Информация : Advanced Video Codec
Профиль формата : [email protected]
Настройки формата : CABAC / 3 Ref Frames
Параметр CABAC формата : Да
Параметр RefFrames формата : 3 кадра
Параметр GOP формата : M=1, N=30
Идентификатор кодека : avc1
Идентификатор кодека/Информация : Advanced Video Coding
Продолжительность : 10 м. 43 с.
Битрейт : 8 547 Кбит/сек
Ширина : 1 920 пикселей
Высота : 1 080 пикселей
Соотношение сторон : 16:9
Режим частоты кадров : Постоянный
Частота кадров : 60,000 кадров/сек
Цветовое пространство : YUV
Субдискретизация насыщенности : 4:2:0
Битовая глубина : 8 бит
Тип развёртки : Прогрессивная
Бит/(Пиксели*Кадры) : 0.069
Размер потока : 656 Мбайт (98%)
Язык : English
Дата кодирования : UTC 2022-04-12 00:13:58
Дата пометки : UTC 2022-04-12 00:13:58
Codec configuration box : avcC


Итоговый тест рендеринга vbr.mp4
Скрытый текст
Общее
Полное имя : A:\самолёт сбит\бенчмарк wt\Итоговый тест рендеринга vbr.mp4
Формат : MPEG-4
Профиль формата : Base Media / Version 2
Идентификатор кодека : mp42 (mp42/mp41)
Размер файла : 719 Мбайт
Продолжительность : 10 м. 43 с.
Режим общего битрейта : Переменный
Общий поток : 9 370 Кбит/сек
Дата кодирования : UTC 2022-04-11 23:32:03
Дата пометки : UTC 2022-04-11 23:32:28
TIM : 00:00:00:00
TSC : 60
TSZ : 1

Видео
Идентификатор : 1
Формат : AVC
Формат/Информация : Advanced Video Codec
Профиль формата : [email protected]
Настройки формата : CABAC / 4 Ref Frames
Параметр CABAC формата : Да
Параметр RefFrames формата : 4 кадра
Параметр GOP формата : M=4, N=60
Идентификатор кодека : avc1
Идентификатор кодека/Информация : Advanced Video Coding
Продолжительность : 10 м. 43 с.
Битрейт : 9 237 Кбит/сек
Ширина : 1 920 пикселей
Высота : 1 080 пикселей
Соотношение сторон : 16:9
Режим частоты кадров : Постоянный
Частота кадров : 60,000 кадров/сек
Цветовое пространство : YUV
Субдискретизация насыщенности : 4:2:0
Битовая глубина : 8 бит
Тип развёртки : Прогрессивная
Бит/(Пиксели*Кадры) : 0.074
Размер потока : 709 Мбайт (99%)
Язык : English
Дата кодирования : UTC 2022-04-11 23:32:03
Дата пометки : UTC 2022-04-11 23:32:03
Цветовой диапазон : Limited
Основные цвета : BT.709
Характеристики трансфера : BT.709
Коэффициенты матрицы : BT.709
Codec configuration box : avcC

Последний раз редактировалось Tamago4a; 27.04.2022 в 19:22. Причина: Забыл указать инфу о youtube
Tamago4a вне форума   Ответить с цитированием Вверх
Реклама на форуме
Старый 28.04.2022, 14:06   #2
aleks_nsk
Модератор
 
Регистрация: 05.07.2010
Возраст: 55
Сообщений: 2,417
Сказал(а) спасибо: 721
Поблагодарили 1,034 раз(а) в 671 сообщениях
Вес репутации: 782
aleks_nsk has a reputation beyond reputealeks_nsk has a reputation beyond reputealeks_nsk has a reputation beyond reputealeks_nsk has a reputation beyond reputealeks_nsk has a reputation beyond reputealeks_nsk has a reputation beyond reputealeks_nsk has a reputation beyond reputealeks_nsk has a reputation beyond repute
По умолчанию

Цитата:
Сообщение от Tamago4a Посмотреть сообщение
есть такая тенденция, что youtube портит качество. Не знаю точно от чего это зависит
Да всё просто, youtube урезает битрейт по своим алгоритмам, поэтому и качество низкое,

Цитата:
Сообщение от Tamago4a Посмотреть сообщение
одна и так же игра у других людей может выглядеть на youtube'е лучше чем у меня.
Есть так называемые пользователи премиум класса (у которых много подписчиков, много лайков), для них другие условия

Выход есть, после монтажа в Pr, экспорт делать не FullHD а UHD, тогда youtube использует другой кодек, более качественный
aleks_nsk вне форума   Ответить с цитированием Вверх
Старый 28.04.2022, 14:30   #3
Tamago4a
Ученик
 
Регистрация: 20.03.2021
Возраст: 26
Сообщений: 15
Сказал(а) спасибо: 1
Поблагодарили 0 раз(а) в 0 сообщениях
Вес репутации: 0
Tamago4a has a spectacular aura about
По умолчанию

Цитата:
Сообщение от aleks_nsk Посмотреть сообщение
Да всё просто
Хорошо, а в каком качество снимать? Какие из исходников самые приемлемые по вес/качество? Плюс интересует. Если мой исходник снят без потери качества в 400 Мбит/с выходит что при рендеринге его в 10 Мбит качество должно потеряться в процентах или как что?
Tamago4a вне форума   Ответить с цитированием Вверх
Старый 29.04.2022, 03:17   #4
aleks_nsk
Модератор
 
Регистрация: 05.07.2010
Возраст: 55
Сообщений: 2,417
Сказал(а) спасибо: 721
Поблагодарили 1,034 раз(а) в 671 сообщениях
Вес репутации: 782
aleks_nsk has a reputation beyond reputealeks_nsk has a reputation beyond reputealeks_nsk has a reputation beyond reputealeks_nsk has a reputation beyond reputealeks_nsk has a reputation beyond reputealeks_nsk has a reputation beyond reputealeks_nsk has a reputation beyond reputealeks_nsk has a reputation beyond repute
По умолчанию

Для съёмки FullHD достаточно 100 Мбит, для youtube 30 и это с запасом
aleks_nsk вне форума   Ответить с цитированием Вверх
Старый 29.04.2022, 12:40   #5
Tamago4a
Ученик
 
Регистрация: 20.03.2021
Возраст: 26
Сообщений: 15
Сказал(а) спасибо: 1
Поблагодарили 0 раз(а) в 0 сообщениях
Вес репутации: 0
Tamago4a has a spectacular aura about
По умолчанию

Цитата:
Сообщение от aleks_nsk Посмотреть сообщение
Для съёмки FullHD достаточно 100 Мбит, для youtube 30 и это с запасом
Хорошо. Если я снимаю в качестве 100 мбит, а потом рендерю в 30 мбит, а потом заливаю на ютуб, это будет лучше чем если я буду снимать в 30 мбит, рендерить в 30 мбит и заливать на ютуб?
Tamago4a вне форума   Ответить с цитированием Вверх
Старый 01.05.2022, 21:40   #6
Жрец Нефтиды
Модератор
 
Аватар для Жрец Нефтиды
 
Регистрация: 15.07.2012
Адрес: Санкт-Петербург
Сообщений: 1,364
Сказал(а) спасибо: 343
Поблагодарили 534 раз(а) в 366 сообщениях
Вес репутации: 553
Жрец Нефтиды has a reputation beyond reputeЖрец Нефтиды has a reputation beyond reputeЖрец Нефтиды has a reputation beyond reputeЖрец Нефтиды has a reputation beyond reputeЖрец Нефтиды has a reputation beyond reputeЖрец Нефтиды has a reputation beyond repute
По умолчанию

Возможно, мой совет не совсем в тему, но я никогда ничего не заливал на пережимной ютуб. Если хочу поделиться -- то только через Яндекс-Диск в исходном качестве. Что может быть лучше исходного качества?
Жрец Нефтиды вне форума   Ответить с цитированием Вверх
Старый 01.05.2022, 21:48   #7
Tamago4a
Ученик
 
Регистрация: 20.03.2021
Возраст: 26
Сообщений: 15
Сказал(а) спасибо: 1
Поблагодарили 0 раз(а) в 0 сообщениях
Вес репутации: 0
Tamago4a has a spectacular aura about
По умолчанию

Цитата:
Сообщение от Жрец Нефтиды Посмотреть сообщение
Яндекс-Диск в исходном качестве
так вот как раз яндекс диск и конвертирует файлы. проверьте это сами.
Tamago4a вне форума   Ответить с цитированием Вверх
Старый 02.05.2022, 01:22   #8
M61
Профи
 
Регистрация: 30.01.2017
Сообщений: 68
Сказал(а) спасибо: 11
Поблагодарили 43 раз(а) в 28 сообщениях
Вес репутации: 208
M61 has a spectacular aura about
По умолчанию

Наверное речь о разном .Хранилища не изменяют файлы,это можно проверить по хеш суммам,каждый байт важен ,если это образ или файл шифрован или содержит цифровую подпись.Что положил в сундук то и достал.А вот возможность просмотра видео или текстового файла прямо в диске наверное требует их привести к одному виду.Если кликнуть по ютуб видео пр.кн.мыши ,выбрать нижний пункт ст.для сисадм. там виден кодек , av или vp. Как распределяют.ну наверно от рейтинга и выше 1080 качества.
M61 вне форума   Ответить с цитированием Вверх
Старый 02.05.2022, 05:09   #9
aleks_nsk
Модератор
 
Регистрация: 05.07.2010
Возраст: 55
Сообщений: 2,417
Сказал(а) спасибо: 721
Поблагодарили 1,034 раз(а) в 671 сообщениях
Вес репутации: 782
aleks_nsk has a reputation beyond reputealeks_nsk has a reputation beyond reputealeks_nsk has a reputation beyond reputealeks_nsk has a reputation beyond reputealeks_nsk has a reputation beyond reputealeks_nsk has a reputation beyond reputealeks_nsk has a reputation beyond reputealeks_nsk has a reputation beyond repute
По умолчанию

Цитата:
Сообщение от Tamago4a Посмотреть сообщение
Хорошо. Если я снимаю в качестве 100 мбит, а потом рендерю в 30 мбит, а потом заливаю на ютуб, это будет лучше чем если я буду снимать в 30 мбит, рендерить в 30 мбит и заливать на ютуб?
Да на самом деле, разница не большая, просто чтоб исходник остался в макс. качестве
aleks_nsk вне форума   Ответить с цитированием Вверх
Старый 08.05.2022, 19:54   #10
Tamago4a
Ученик
 
Регистрация: 20.03.2021
Возраст: 26
Сообщений: 15
Сказал(а) спасибо: 1
Поблагодарили 0 раз(а) в 0 сообщениях
Вес репутации: 0
Tamago4a has a spectacular aura about
По умолчанию

В общем нашел вот такую информацию [Для просмотра данной ссылки нужно зарегистрироваться]
По итогу принял решение что оптимальным является настройка High 4:4:4 100 VBR.
Tamago4a вне форума   Ответить с цитированием Вверх
Ответ

Метки
bandicam, качество исходников, настройки записи, настройки рендеринга, настройки эпизода

Опции темы

Ваши права в разделе
Вы не можете создавать новые темы
Вы не можете отвечать в темах
Вы не можете прикреплять вложения
Вы не можете редактировать свои сообщения

BB коды Вкл.
Смайлы Вкл.
[IMG] код Вкл.
HTML код Выкл.

Быстрый переход

Похожие темы
Тема Автор Раздел Ответов Последнее сообщение
Видеомонтаж Вашего медиаконтента Obsajenmedia Москва 0 03.03.2020 16:02
Друзья! Прошу помощи. Скачет качство после экспорта doctor.buff Adobe Premiere / Adobe Premiere PRO 2 04.01.2020 18:33
Немного о реверсе и качестве перекодировки aleksey Общие вопросы по видеомонтажу 17 15.11.2010 13:07


Часовой пояс GMT +1, время: 16:09.




Powered by vBulletin® Version 3.8.3
Copyright ©2000 - 2022, Jelsoft Enterprises Ltd. Перевод: zCarot


Рейтинг@Mail.ru